Login
Username:
Password:
[Signup]
[Recover Account]


Browse Torrents

Poll


You must be logged in to view polls



Latest Torrents
Informer.2018.S01E...
- [Size: 334.21 MB]

Holby.City.S20E46....
- [Size: 383.91 MB]

Route.80.2018.HDRi...
- [Size: 1.30 GB]

Requiem.for.a.Figh...
- [Size: 1.23 GB]

The.Predator.2018....
- [Size: 1.18 GB]


Torrent Details For "Furry.Vengeance.2010.1080p.BluRay.x264-SECTOR7"

Furry.Vengeance.2010.1080p.BluRay.x264-SECTOR7

Download this torrent | Magnet Download
Health:
Seeds: 42
Leechers: 88
Completed: 252 
Last Checked: 21-10-2018 19:17:59
External Torrent
Update Stats



Images Host

Poster


iMDB
Title: Furry Vengeance
Year: 2010
Votes: 14037
Rating: 3.8/10
Language: English
Tagline: He came. He saw. They conquered.
Director: Roger Kumble
Writing By: Michael Carnes,Josh Gilbert,
Produced By: Mohamed Khalaf Al-Mazrouei,Brendan Fraser,Terri Goddard,Keith Goldberg,Jonathan King,Molly O'Keefe,Ira Shuman,Robert Simonds,Jeff Skoll,
Music: Ed Shearmur
Cast:
Brendan Fraser as Dan Sanders
Ricky Garcia as Frank
Eugene Cordero as Cheese
Patrice O'Neal as Gus
Jim Norton as Hank
Brooke Shields as Tammy Sanders
Matt Prokop as Tyler Sanders
Billy Bush as Drill Sergeant
Ken Jeong as Neal Lyman
Angela Kinsey as Felder
Trailers:
Furry Vengeance: Trailer #1


Watch-Free-HD     Download

Details
Name:Furry.Vengeance.2010.1080p.BluRay.x264-SECTOR7
Description:
Video
ID : 1
Format : AVC
Format/Info : Advanced Video Codec
Format profile : [email protected]
Format settings : CABAC / 4 Ref Frames
Format settings, CABAC : Yes
Format settings, ReFrames : 4 frames
Muxing mode : Header stripping
Codec ID : V_MPEG4/ISO/AVC
Duration : 1 h 31 min
Bit rate : 10.9 Mb/s
Width : 1 920 pixels
Height : 1 080 pixels
Display aspect ratio : 16:9
Frame rate mode : Constant
Frame rate : 23.976 FPS
Color space : YUV
Chroma subsampling : 4:2:0
Bit depth : 8 bits
Scan type : Progressive
Bits/(Pixel*Frame) : 0.220
Stream size : 6.82 GiB (86%)
Writing library : x264 core 104 r1688 0b36c6d
Encoding settings : cabac=1 / ref=4 / deblock=1:0:0 / analyse=0x3:0x133 / me=umh / subme=8 / psy=1 / psy_rd=1.00:0.00 / mixed_ref=1 / me_range=16 / chroma_me=1 / trellis=1 / 8x8dct=1 / cqm=0 / deadzone=21,11 / fast_pskip=0 / chroma_qp_offset=-2 / threads=18 / sliced_threads=0 / nr=0 / decimate=1 / interlaced=0 / constrained_intra=0 / bframes=3 / b_pyramid=2 / b_adapt=1 / b_bias=0 / direct=1 / weightb=1 / open_gop=0 / weightp=2 / keyint=240 / keyint_min=24 / scenecut=40 / intra_refresh=0 / rc_lookahead=40 / rc=2pass / mbtree=1 / bitrate=10946 / ratetol=1.0 / qcomp=0.60 / qpmin=10 / qpmax=51 / qpstep=4 / cplxblur=20.0 / qblur=0.5 / ip_ratio=1.40 / aq=1:1.00
Language : English
Default : Yes
Forced : No

Audio
ID : 2
Format : DTS
Format/Info : Digital Theater Systems
Muxing mode : Header stripping
Codec ID : A_DTS
Duration : 1 h 31 min
Bit rate mode : Constant
Bit rate : 1 509 kb/s
Channel(s) : 6 channels
Channel layout : C L R Ls Rs LFE
Sampling rate : 48.0 kHz
Frame rate : 93.750 FPS (512 SPF)
Bit depth : 24 bits
Compression mode : Lossy
Stream size : 986 MiB (12%)
Language : English
Default : Yes
Forced : No

 http://imagecurl.com/viewer.p...8116592791127065.png

 http://imagecurl.com/viewer.p...1565916883254291.png

 http://imagecurl.com/viewer.p...5142455.png[/center]
Category:Movies > 1080P Bluray
Lang:English  English
Total Size:7.94 GB
Info Hash:683256f6ebbfae474e8dae2f1c27c01ec614f1d1
Added By:Scene
Date Added:21-10-2018 19:15:35
Downloads:68

Ratings:Not Yet Rated (Log in to rate it)


Tracker:
http://tracker.trackerfix.com:80/announce


File List: 


Comments

No comments still posted

Top
Copyright 2018 DownloadHD -|- Page Generated In 0.202828 secs.
-|- RSS Feed -|- Feed Info