Login
Username:
Password:
[Signup]
[Recover Account]


Browse Torrents

Poll


You must be logged in to view polls



Latest Torrents
Jaan Kurbaan 2017 ...
- [Size: 808.25 MB]

NFL.2018.11.12.Gia...
- [Size: 5.93 GB]

Vaastav (Nandha) 2...
- [Size: 605.43 MB]

Gooli Hatti (2018)...
- [Size: 542.57 MB]

Informer.2018.S01E...
- [Size: 334.21 MB]


Torrent Details For "BHARAT- The Great Leader (Bharat Ane Nenu) (2018) 720p - UnCut - HDRip - x264 - [Hindi + Telugu..."

BHARAT- The Great Leader (Bharat Ane Nenu) (2018) 720p - UnCut - HDRip - x264 - [Hindi + Telugu...

Download this torrent | Magnet Download
Health:
Seeds: 9
Leechers: 191
Completed:
Last Checked: 22-10-2018 10:29:06
External Torrent
Update Stats



Images Host

Poster


iMDB
Imdb Picture Title: Bharat Ane Nenu
Year: 2018
Runtime: 173 minutes
Votes: 826
Rating: 9.3/10
Language: Telugu
Country: India
All Genres: Action, Drama
Plot Outline: To make good on a promise he made to his mother, a university graduate returns to India and becomes disillusioned by the government corruption he encounters.
Director: Siva Koratala
Writing By: Siva Koratala,
Produced By: D.V.V. Danayya,Dasari Kalyan,Raj Kumar,Koti Paruchuri,B. Bala Prasad,
Music: Devi Sri Prasad
Cast:
Mahesh Babu as Bharath
Kiara Advani as Vasumathi
Prakash Raj as
Yashpal Sharma as
Sarath Kumar as
Brahmaji as
Shatru as
Sithara as
P. Ravi Shankar as
Krishna Murali Posani as


Watch-Free-HD     Download

Details
Name:BHARAT- The Great Leader (Bharat Ane Nenu) (2018) 720p - UnCut - HDRip - x264 - [Hindi + Telugu...
Description:
New Latest HD Movies Download Link :-  http://skymovieshd.org
***********************************



Media Info=====

Video
ID                                       : 1
Format                                   : AVC
Format/Info                              : Advanced Video Codec
Format profile                           : [email protected]
Format settings                          : CABAC / 4 Ref Frames
Format settings, CABAC                   : Yes
Format settings, RefFrames               : 4 frames
Codec ID                                 : V_MPEG4/ISO/AVC
Duration                                 : 2 h 48 min
Bit rate                                 : 1 052 kb/s
Width                                    : 1 280 pixels
Height                                   : 544 pixels
Display aspect ratio                     : 2.35:1
Frame rate mode                          : Constant
Frame rate                               : 23.976 (23976/1000) FPS
Color space                              : YUV
Chroma subsampling                       : 4:2:0
Bit depth                                : 8 bits
Scan type                                : Progressive
Bits/(Pixel*Frame)                       : 0.063
Stream size                              : 1.24 GiB (84%)Audio #1
ID                                       : 2
Format                                   : MPEG Audio
Format version                           : Version 1
Format profile                           : Layer 3
Format settings                          : Joint stereo
Codec ID                                 : A_MPEG/L3
Codec ID/Hint                            : MP3
Duration                                 : 2 h 48 min
Bit rate mode                            : Constant
Bit rate                                 : 96.0 kb/s
Channel(s)                               : 2 channels
Sampling rate                            : 44.1 kHz
Frame rate                               : 38.281 FPS (1152 SPF)
Compression mode                         : Lossy
Stream size                              : 116 MiB (8%)








New Latest HD Movies Download Link :-  http://skymovieshd.org
***********************************
Category:Movies > South Dub
Lang:Hindi
Total Size:1.84 GB
Info Hash:005b631c4cdab88c0d79b45be6091015c816ae61
Added By:Sahebs
Date Added:22-10-2018 09:33:44
Downloads:287

Ratings:Not Yet Rated (Log in to rate it)


Tracker:
udp://tracker.opentrackr.org:1337/announce

This Torrent also has backup trackers
URLSeedersLeechersCompleted
http://nyaa.tracker.wf:7777/announce000
http://sukebei.tracker.wf:8888/announce000
http://anidex.moe:6969/announce000
http://tracker3.itzmx.com:8080/announce000


File List: 


Comments

No comments still posted

Top
Copyright 2018 DownloadHD -|- Page Generated In 2.072284 secs.
-|- RSS Feed -|- Feed Info